Book.Club.2018.720p.WEB-DL.X264.READINFO.With.Sample.LLG

Category: Home


Posted on 2018-07-24, by phaelx.

Description

Pay Attention = CAM AUDIO

Complete name : Book.Club.2018.720p.WEB-DL.X264.READINFO.With.Sample.LLG.mp4
Format : MPEG-4
Format profile : Base Media
Codec ID : isom (isom/iso2/avc1/mp41)
File size : 988 MiB
Duration : 1 h 43 min
Overall bit rate : 1 328 kb/s

Video
ID : 1
Format : AVC
Format/Info : Advanced Video Codec
Format profile : High@L3.1
Format settings : CABAC / 4 Ref Frames
Format settings, CABAC : Yes
Format settings, RefFrames : 4 frames
Codec ID : avc1
Codec ID/Info : Advanced Video Coding
Duration : 1 h 43 min
Bit rate : 1 200 kb/s
Width : 1 280 pixels
Height : 566 pixels
Display aspect ratio : 2.25:1
Frame rate mode : Constant
Frame rate : 29.970 (29970/1000) FPS
Color space : YUV
Chroma subsampling : 4:2:0
Bit depth : 8 bits
Scan type : Progressive
Bits/(Pixel*Frame) : 0.055
Stream size : 889 MiB (90%)

Audio
ID : 2
Format : AC-3
Format/Info : Audio Coding 3
Codec ID : ac-3
Duration : 1 h 43 min
Bit rate mode : Constant
Bit rate : 128 kb/s
Channel(s) : 2 channels
Channel positions : Front: L R
Sampling rate : 48.0 kHz
Frame rate : 31.250 FPS (1536 SPF)
Bit depth : 16 bits
Compression mode : Lossy
Stream size : 95.2 MiB (10%)
Service kind : Complete Main


Download
http://usersdrive.com/u1b7kgrbvjxd.html

Sponsored High Speed Downloads
8129 dl's @ 2194 KB/s
Download Now [Full Version]
6973 dl's @ 3293 KB/s
Download Link 1 - Fast Download
5947 dl's @ 3396 KB/s
Download Mirror - Direct Download



Search More...
Book.Club.2018.720p.WEB-DL.X264.READINFO.With.Sample.LLG

Search free ebooks in ebookee.com!


Links
Download this book

No active download links here?
Please check the description for download links if any or do a search to find alternative books.


Related Books


Comments

No comments for "Book.Club.2018.720p.WEB-DL.X264.READINFO.With.Sample.LLG".


    Add Your Comments
    1. Download links and password may be in the description section, read description carefully!
    2. Do a search to find mirrors if no download links or dead links.

    required

    required, will not be published

    need login

    required

    Not clear? Click here to refresh.

    Back to Top